<?xml version="1.0" standalone="no"?>
<!DOCTYPE svg PUBLIC "-//W3C//DTD SVG 1.1//EN" "http://www.w3.org/Graphics/SVG/1.1/DTD/svg11.dtd">
<svg xmlns="http://www.w3.org/2000/svg">
<metadata>IconScout</metadata>
<defs>
<font id="unicons-18" horiz-adv-x="1000" >
<font-face font-family="unicons-18" font-weight="400" font-stretch="normal" units-per-em="1000" ascent="850" descent="-150" />
<missing-glyph horiz-adv-x="1000" />
<glyph glyph-name="vuejs" unicode="&#xec45;" d="M751 748v0l-6 0-35 0 0 0-111 0-98-165-100 165-110 0 0 0h-196v0l-60 0 466-796 464 796z m-250-631l-321 548h118l203-350 202 350h117z" horiz-adv-x="1000" />

<glyph glyph-name="vk" unicode="&#xec46;" d="M628 767h-256c-233 0-289-56-289-289v-256c0-233 55-289 289-289h256c233 0 289 55 289 289v256c0 233-55 289-289 289z m128-595h-61c-23 0-30 19-71 60-36 35-51 39-60 39-13 0-16-3-16-21v-55c0-14-5-23-44-23a237 237 0 0 0-185 111 484 484 0 0 0-96 202c0 9 4 17 21 17h61c15 0 21-7 27-23 30-87 80-162 100-162 8 0 12 3 12 23v89c-3 41-25 44-25 59a15 15 0 0 0 16 14h95c13 0 18-7 18-22v-121c0-13 5-17 9-17 8 0 14 4 29 18a500 500 0 0 1 74 125 26 26 0 0 0 27 17h60c19 0 23-9 19-22a759 759 0 0 0-82-140c-6-10-9-16 0-27 6-9 27-27 42-44a270 270 0 0 0 51-71c5-17-4-26-21-26z" horiz-adv-x="1000" />

<glyph glyph-name="telegram" unicode="&#xec47;" d="M500 767a417 417 0 1 1 416-417 417 417 0 0 1-416 417z m132-632a29 29 0 0 0-42-14l-113 88-72-67a12 12 0 0 0-12-2l14 124 0 0 1 3s203 185 211 193c9 8 6 9 6 9 0 10-15 0-15 0l-270-173-112 38s-17 6-19 20c-2 13 20 21 20 21l446 177s37 17 37-11z" horiz-adv-x="1000" />

<glyph glyph-name="yin-yang" unicode="&#xec48;" d="M500 204a42 42 0 1 1 42-41 42 42 0 0 1-42 41z m0 563a231 231 0 0 1-23-2 416 416 0 0 1 23-832 231 231 0 0 1 23 2 416 416 0 0 1-23 832z m0-750a333 333 0 0 0-220 582 228 228 0 0 1 220-291 146 146 0 0 0 0-291z m220 84a228 228 0 0 1-220 291 146 146 0 0 0 0 291 333 333 0 0 0 220-582z m-220 478a42 42 0 1 1 42-41 42 42 0 0 1-42 41z" horiz-adv-x="1000" />

<glyph glyph-name="angle-left-b" unicode="&#xec49;" d="M354 317l238-234c16-16 41-16 58 0 17 17 17 42 0 59l-204 208 204 208c17 17 17 42 0 59-8 8-17 12-29 12-13 0-21-4-29-12l-238-234c-16-21-16-46 0-66 0 4 0 4 0 0z" horiz-adv-x="1000" />

<glyph glyph-name="bath" unicode="&#xec4a;" d="M917 350h-709v233a82 82 0 0 0 44 73 83 83 0 0 0 48 10 145 145 0 0 1 34-148l45-44a42 42 0 0 1 59 0l147 147a42 42 0 0 1 0 59l-44 44a146 146 0 0 1-189 14 166 166 0 0 1-227-155v-233h-42a42 42 0 0 1 0-83h42v-125a125 125 0 0 1 83-118v-49a42 42 0 0 1 84 0v42h416v-42a42 42 0 0 1 84 0v49a125 125 0 0 1 83 118v125h42a42 42 0 0 1 0 83z m-524 315a63 63 0 0 0 89 0l14-15-88-88-15 15a63 63 0 0 0 0 88z m399-523a42 42 0 0 0-42-42h-500a42 42 0 0 0-42 42v125h584z" horiz-adv-x="1000" />

<glyph glyph-name="metro" unicode="&#xec4b;" d="M363 255a42 42 0 0 1-45 8 38 38 0 0 1-23-22 42 42 0 1 1 77 0 48 48 0 0 1-9 14z m333 0a44 44 0 0 1-59 0 48 48 0 0 1-9-14 41 41 0 0 1 9-46 48 48 0 0 1 14-8 39 39 0 0 1 31 0 48 48 0 0 1 14 8 41 41 0 0 1 9 46 48 48 0 0 1-9 14z m109-192a207 207 0 0 1 74 200l-63 334a208 208 0 0 1-204 170h-224a208 208 0 0 1-204-170l-63-334a207 207 0 0 1 74-200l-58-59a42 42 0 1 1 59-58l78 77a209 209 0 0 1 52-6h348a209 209 0 0 1 52 6l78-77a42 42 0 0 1 59 58z m-540 518a125 125 0 0 0 123 102h224a125 125 0 0 0 123-102l14-77a331 331 0 0 0-498 0z m505-436a125 125 0 0 0-96-45h-348a125 125 0 0 0-123 148l30 158a415 415 0 0 1 534 0l30-158a125 125 0 0 0-27-103z" horiz-adv-x="1000" />

<glyph glyph-name="comment-add" unicode="&#xec4c;" d="M208 517a42 42 0 0 1 84 0v41h41a42 42 0 0 1 0 84h-41v41a42 42 0 0 1-84 0v-41h-41a42 42 0 0 1 0-84h41z m542 125h-250a42 42 0 0 1 0-84h250a42 42 0 0 0 42-41v-405l-66 60a42 42 0 0 1-28 11h-365a42 42 0 0 0-41 42v125a42 42 0 0 1-84 0v-125a125 125 0 0 1 125-125h349l125-114a42 42 0 0 1 26-11 46 46 0 0 1 17 3 42 42 0 0 1 25 39v500a125 125 0 0 1-125 125z" horiz-adv-x="1000" />

<glyph glyph-name="fire" unicode="&#xec4d;" d="M353 500l0 0 0 0z m415 8a52 52 0 0 1-10 7 42 42 0 0 1-58-17 241 241 0 0 0-59-74 361 361 0 0 1 6 63 363 363 0 0 1-183 316 42 42 0 0 1-63-34 292 292 0 0 0-102-206l-10-7a355 355 0 0 1-83-78 374 374 0 0 1 152-580 42 42 0 0 1 58 39 44 44 0 0 1-2 13 291 291 0 0 0-8 108 375 375 0 0 1 180-168 42 42 0 0 1 29-1 375 375 0 0 1 153 619z m-163-535a290 290 0 0 0-149 184 371 371 0 0 0-8 40 42 42 0 0 1-33 35 41 41 0 0 1-8 1 42 42 0 0 1-36-21 373 373 0 0 1-50-196 291 291 0 0 0-49 411 273 273 0 0 0 65 60 31 31 0 0 1 3 3s12 10 13 10a374 374 0 0 1 121 193 281 281 0 0 0 57-337 42 42 0 0 1 50-59 327 327 0 0 1 161 112 292 292 0 0 0-137-436z" horiz-adv-x="1000" />

<glyph glyph-name="qrcode-scan" unicode="&#xec4e;" d="M333-25h-166a42 42 0 0 0-42 42v166a42 42 0 0 1-83 0v-166a125 125 0 0 1 125-125h166a42 42 0 0 1 0 83z m584 250a42 42 0 0 1-42-42v-166a42 42 0 0 0-42-42h-166a42 42 0 0 1 0-83h166a125 125 0 0 1 125 125v166a42 42 0 0 1-41 42z m-84 583h-166a42 42 0 0 1 0-83h166a42 42 0 0 0 42-42v-166a42 42 0 0 1 83 0v166a125 125 0 0 1-125 125z m-750-333a42 42 0 0 1 42 42v166a42 42 0 0 0 42 42h166a42 42 0 0 1 0 83h-166a125 125 0 0 1-125-125v-166a42 42 0 0 1 41-42z m334 167h-167a42 42 0 0 1-42-42v-167a42 42 0 0 1 42-41h167a42 42 0 0 1 41 41v167a42 42 0 0 1-41 42z m-42-167h-83v83h83z m208-83h167a42 42 0 0 1 42 41v167a42 42 0 0 1-42 42h-167a42 42 0 0 1-41-42v-167a42 42 0 0 1 41-41z m42 166h83v-83h-83z m-208-250h-167a42 42 0 0 1-42-41v-167a42 42 0 0 1 42-42h167a42 42 0 0 1 41 42v167a42 42 0 0 1-41 41z m-42-166h-83v83h83z m208 41a42 42 0 0 1 42 42 42 42 0 0 1 0 83h-42a42 42 0 0 1-41-41v-42a42 42 0 0 1 41-42z m167 125a42 42 0 0 1-42-41v-125a42 42 0 0 1 0-84h42a42 42 0 0 1 42 42v167a42 42 0 0 1-42 41z m-167-166a42 42 0 1 1 42-42 42 42 0 0 1-42 42z" horiz-adv-x="1000" />

<glyph glyph-name="panel-add" unicode="&#xec4f;" d="M750 433h-167v292a42 42 0 0 1-41 42h-209a42 42 0 0 1-41-42v-208h-167a42 42 0 0 1-42-42v-500a42 42 0 0 1 42-42h625a42 42 0 0 1 42 42v417a42 42 0 0 1-42 41z m-458-416h-125v416h125z m208 0h-125v666h125z m208 0h-125v333h125z m167 666h-42v42a42 42 0 0 1-83 0v-42h-42a42 42 0 0 1 0-83h42v-42a42 42 0 0 1 83 0v42h42a42 42 0 0 1 0 83z" horiz-adv-x="1000" />

<glyph glyph-name="brackets-curly" unicode="&#xec50;" d="M250 600a83 83 0 0 0 83 83 42 42 0 0 1 0 84 167 167 0 0 1-166-167v-125a83 83 0 0 0-84-83 42 42 0 0 1 0-84 83 83 0 0 0 84-83v-125a167 167 0 0 1 166-167 42 42 0 0 1 0 84 83 83 0 0 0-83 83v125a167 167 0 0 1-57 125 167 167 0 0 1 57 125z m667-208a83 83 0 0 0-84 83v125a167 167 0 0 1-166 167 42 42 0 0 1 0-84 83 83 0 0 0 83-83v-125a167 167 0 0 1 58-125 167 167 0 0 1-58-125v-125a83 83 0 0 0-83-83 42 42 0 0 1 0-84 167 167 0 0 1 166 167v125a83 83 0 0 0 84 83 42 42 0 0 1 0 84z" horiz-adv-x="1000" />

<glyph glyph-name="folder-open" unicode="&#xec51;" d="M949 418a42 42 0 0 1-32 15h-84v42a125 125 0 0 1-125 125h-261l-14 42a125 125 0 0 1-118 83h-148a125 125 0 0 1-125-125v-500a125 125 0 0 1 125-125h600a125 125 0 0 1 121 98l70 310a42 42 0 0 1-9 35z m-725-327a42 42 0 0 0-42-33h-15a42 42 0 0 0-42 42v500a42 42 0 0 0 42 42h148a42 42 0 0 0 42-29l22-68a42 42 0 0 1 38-28h291a42 42 0 0 0 42-42v-42h-417a42 42 0 0 1-41-32z m583 0a42 42 0 0 0-42-33h-465a59 59 0 0 1 5 15l62 277h500z" horiz-adv-x="1000" />

<glyph glyph-name="comparison" unicode="&#xec52;" d="M875 17h-708v22l208 209 158-159a42 42 0 0 1 59 0l313 313a42 42 0 0 1 0 59 42 42 0 0 1-59 0l-283-283-158 158a42 42 0 0 1-59 0l-179-179v216l208 208 117-117a42 42 0 0 1 58 0l200 200 91-91a42 42 0 0 1 59 59l-121 120a42 42 0 0 1-59 0l-200-200-116 117a42 42 0 0 1-59 0l-178-179v235a42 42 0 0 1-84 0v-750a42 42 0 0 1 42-42h750a42 42 0 0 1 0 84z" horiz-adv-x="1000" />

<glyph glyph-name="file-export" unicode="&#xec53;" d="M872 199a48 48 0 0 1-9 14l-125 125a42 42 0 0 1-59-59l54-54h-233a42 42 0 0 1 0-83h233l-54-54a42 42 0 0 1 0-59 42 42 0 0 1 59 0l125 125a39 39 0 0 1 9 14 42 42 0 0 1 0 31z m-289-182h-333a42 42 0 0 0-42 41v584a42 42 0 0 0 42 41h208v-125a125 125 0 0 1 125-125h167a42 42 0 0 1 38 26 42 42 0 0 1-8 46l-250 250a45 45 0 0 1-12 8h-4l-12 4h-252a125 125 0 0 1-125-125v-584a125 125 0 0 1 125-125h333a42 42 0 0 1 0 84z m-41 608l108-108h-67a42 42 0 0 0-41 41z" horiz-adv-x="1000" />

<glyph glyph-name="channel-add" unicode="&#xec54;" d="M750 558h42v-41a42 42 0 0 1 83 0v41h42a42 42 0 0 1 0 84h-42v41a42 42 0 0 1-83 0v-41h-42a42 42 0 0 1 0-84z m83-375a125 125 0 0 1-72-23l-102 60a156 156 0 0 1 8 47 167 167 0 0 1-125 161v96a125 125 0 1 1-84 0v-96a167 167 0 0 1-125-161 156 156 0 0 1 8-47l-102-60a125 125 0 0 1-72 23 125 125 0 1 1 125-125 125 125 0 0 1-5 34l95 57a167 167 0 0 1 235 0l96-57a125 125 0 1 1 120 91z m-666-166a42 42 0 1 0 41 41 42 42 0 0 0-41-41z m333 666a42 42 0 1 0-42-41 42 42 0 0 0 42 41z m0-500a83 83 0 1 0 83 84 83 83 0 0 0-83-84z m333-166a42 42 0 1 0 42 41 42 42 0 0 0-42-41z" horiz-adv-x="1000" />

<glyph glyph-name="rupee-sign" unicode="&#xec55;" d="M750 558h-92a229 229 0 0 1-42 84h134a42 42 0 0 1 0 83h-458a42 42 0 0 1 0-83h145a146 146 0 0 0 132-84h-277a42 42 0 0 1 0-83h291a146 146 0 0 0-143-125h-148a29 29 0 0 1-6 0 27 27 0 0 1-8 0 29 29 0 0 1-8-4l-5-3a31 31 0 0 1-6-7 46 46 0 0 1-4-6 25 25 0 0 1 0-7 27 27 0 0 1-5-15 29 29 0 0 1 0-5 27 27 0 0 1 0-9 29 29 0 0 1 4-8s0-3 3-5l250-291a42 42 0 0 1 63 54l-188 223h55a229 229 0 0 1 230 208h83a42 42 0 0 1 0 83z" horiz-adv-x="1000" />

<glyph glyph-name="channel" unicode="&#xec56;" d="M833 183a125 125 0 0 1-72-23l-102 60a156 156 0 0 1 8 47 167 167 0 0 1-125 161v96a125 125 0 1 1-84 0v-96a167 167 0 0 1-125-161 156 156 0 0 1 8-47l-102-60a125 125 0 0 1-72 23 125 125 0 1 1 125-125 125 125 0 0 1-5 34l95 57a167 167 0 0 1 235 0l96-57a125 125 0 1 1 120 91z m-666-166a42 42 0 1 0 41 41 42 42 0 0 0-41-41z m333 666a42 42 0 1 0-42-41 42 42 0 0 0 42 41z m0-500a83 83 0 1 0 83 84 83 83 0 0 0-83-84z m333-166a42 42 0 1 0 42 41 42 42 0 0 0-42-41z" horiz-adv-x="1000" />

<glyph glyph-name="link-add" unicode="&#xec57;" d="M505 209l-162-162a103 103 0 0 0-146 0 102 102 0 0 0 0 146l162 162a42 42 0 1 1-59 59l-162-162a187 187 0 0 1 264-264l162 162a42 42 0 0 1-59 59z m-137 9a42 42 0 0 1 29-12 42 42 0 0 1 30 12l205 205a42 42 0 1 1-59 59l-205-205a42 42 0 0 1 0-59z m507-118h-42v42a42 42 0 0 1-83 0v-42h-42a42 42 0 0 1 0-83h42v-42a42 42 0 0 1 83 0v42h42a42 42 0 0 1 0 83z m-175 186l162 162a187 187 0 0 1-264 264l-162-162a42 42 0 1 1 59-59l162 162a103 103 0 0 0 146 0 102 102 0 0 0 0-146l-162-162a42 42 0 0 1 0-59 42 42 0 0 1 59 0z" horiz-adv-x="1000" />

<glyph glyph-name="file-import" unicode="&#xec58;" d="M458 17h-208a42 42 0 0 0-42 41v584a42 42 0 0 0 42 41h208v-125a125 125 0 0 1 125-125h125v-83a42 42 0 0 1 84 0v128a55 55 0 0 1-3 11v4a55 55 0 0 1-8 12l-250 250a55 55 0 0 1-12 8 13 13 0 0 1-4 0l-13 4h-252a125 125 0 0 1-125-125v-584a125 125 0 0 1 125-125h208a42 42 0 0 1 0 84z m84 608l108-108h-67a42 42 0 0 0-41 41z m250-400h-233l54 54a42 42 0 0 1-59 59l-125-125a48 48 0 0 1-9-14 42 42 0 0 1 0-31 39 39 0 0 1 9-14l125-125a42 42 0 0 1 59 0 42 42 0 0 1 0 59l-54 54h233a42 42 0 0 1 0 83z" horiz-adv-x="1000" />

<glyph glyph-name="x" unicode="&#xec59;" d="M333 58a125 125 0 0 0-125 125v334a125 125 0 0 0 125 125 42 42 0 0 1 0 83 208 208 0 0 1-208-208v-334a208 208 0 0 1 208-208 42 42 0 0 1 0 83z m322 137a42 42 0 0 1 0 60l-96 95 96 95a42 42 0 0 1-60 60l-95-96-95 96a42 42 0 0 1-60-60l96-95-96-95a42 42 0 0 1 0-60 42 42 0 0 1 60 0l95 96 95-96a42 42 0 0 1 60 0z m12 530a42 42 0 0 1 0-83 125 125 0 0 0 125-125v-334a125 125 0 0 0-125-125 42 42 0 0 1 0-83 208 208 0 0 1 208 208v334a208 208 0 0 1-208 208z" horiz-adv-x="1000" />

<glyph glyph-name="save" unicode="&#xec5a;" d="M863 463l-250 250a42 42 0 0 1-13 9 45 45 0 0 1-17 3h-333a125 125 0 0 1-125-125v-500a125 125 0 0 1 125-125h500a125 125 0 0 1 125 125v333a42 42 0 0 1-12 30z m-488 179h167v-84h-167z m250-584h-250v125a42 42 0 0 0 42 42h166a42 42 0 0 0 42-42z m167 42a42 42 0 0 0-42-42h-42v125a125 125 0 0 1-125 125h-166a125 125 0 0 1-125-125v-125h-42a42 42 0 0 0-42 42v500a42 42 0 0 0 42 42h42v-125a42 42 0 0 1 41-42h250a42 42 0 0 1 42 42v66l167-167z" horiz-adv-x="1000" />

<glyph glyph-name="heart-break" unicode="&#xec5b;" d="M840 658a261 261 0 0 1-340 25 261 261 0 0 1-340-395l310-311a42 42 0 0 1 60 0l310 311a261 261 0 0 1 0 370z m-59-310l-281-282-281 282a177 177 0 0 0 231 268l-72-166a42 42 0 0 1 0-35 42 42 0 0 1 27-22l116-29-59-121a42 42 0 0 1 20-55 42 42 0 0 1 18-5 42 42 0 0 1 38 24l83 166a42 42 0 0 1 0 36 44 44 0 0 1-28 23l-118 30 60 141a177 177 0 0 0 247-255z" horiz-adv-x="1000" />

<glyph glyph-name="tachometer-fast-alt" unicode="&#xec5c;" d="M500 642a417 417 0 0 1-361-625 42 42 0 0 1 73 41 330 330 0 0 0-45 167 333 333 0 1 0 622-167 42 42 0 0 1 15-57 42 42 0 0 1 57 16 417 417 0 0 1-361 625z m118-240l-64-64a121 121 0 0 1-54 12 125 125 0 1 1 125-125 121 121 0 0 1-12 53l64 65a42 42 0 0 1 0 59 42 42 0 0 1-59 0z m-118-219a42 42 0 0 0 0 84 42 42 0 0 0 29-12 42 42 0 0 0 13-30 42 42 0 0 0-42-42z" horiz-adv-x="1000" />

<glyph glyph-name="facebook" unicode="&#xec5d;" d="M871 767h-742a46 46 0 0 1-46-46v-742a46 46 0 0 1 46-46h399v323h-108v125h108v94a152 152 0 0 0 162 167 844 844 0 0 0 97-5v-113h-66c-53 0-63-25-63-61v-80h125l-16-125h-109v-325h213a46 46 0 0 1 46 46v742a46 46 0 0 1-46 46z" horiz-adv-x="1000" />

<glyph glyph-name="create-dashboard" unicode="&#xec5e;" d="M417 308h-250a42 42 0 0 1-42-41v-250a42 42 0 0 1 42-42h250a42 42 0 0 1 41 42v250a42 42 0 0 1-41 41z m-42-250h-167v167h167z m458 667h-250a42 42 0 0 1-41-42v-250a42 42 0 0 1 41-41h250a42 42 0 0 1 42 41v250a42 42 0 0 1-42 42z m-41-250h-167v167h167z m41-292h-83v84a42 42 0 0 1-83 0v-84h-84a42 42 0 0 1 0-83h84v-83a42 42 0 0 1 83 0v83h83a42 42 0 0 1 0 83z m-416 542h-250a42 42 0 0 1-42-42v-250a42 42 0 0 1 42-41h250a42 42 0 0 1 41 41v250a42 42 0 0 1-41 42z m-42-250h-167v167h167z" horiz-adv-x="1000" />

<glyph glyph-name="whatsapp" unicode="&#xec5f;" d="M692 267c-9 4-63 29-71 33-8 4-17 4-25-4-8-8-25-33-33-42-5-8-13-8-21-4-29 13-59 29-84 50-20 21-41 46-58 71-4 8 0 17 4 21 4 4 9 12 17 16 4 5 8 13 8 17 4 4 4 13 0 17-4 4-25 54-33 75-4 29-13 29-21 29h-21c-8 0-21-8-25-13-25-25-37-54-37-87 4-38 16-75 41-108 46-67 105-121 175-155 21-8 38-16 59-20 21-9 41-9 66-5 30 5 55 25 71 50 9 17 9 34 4 50l-16 9m104 379c-163 162-425 162-588 0-133-133-158-338-66-500l-59-213 221 59c63-34 129-50 196-50 229 0 413 183 413 412 4 109-42 213-117 292m-113-583c-54-34-116-55-183-55-62 0-121 17-175 46l-12 9-130-34 34 125-9 13c-100 166-50 375 113 479s371 50 471-108c100-163 54-375-109-475" horiz-adv-x="1000" />

<glyph glyph-name="setting" unicode="&#xec60;" d="M829 323a42 42 0 0 0 0 55l53 60a42 42 0 0 1 5 48l-83 144a42 42 0 0 1-44 20l-79-15a42 42 0 0 0-48 27l-25 76a42 42 0 0 1-40 29h-166a42 42 0 0 1-42-29l-23-76a42 42 0 0 0-48-27l-81 15a42 42 0 0 1-41-20l-84-144a42 42 0 0 1 5-48l52-60a42 42 0 0 0 0-55l-52-60a42 42 0 0 1-5-49l84-144a42 42 0 0 1 44-20l79 15a42 42 0 0 0 48-27l25-76a42 42 0 0 1 42-29h166a42 42 0 0 1 40 29l25 76a42 42 0 0 0 48 27l79-15a42 42 0 0 1 44 20l83 144a42 42 0 0 1-5 49z m-62-56l33-38-53-92-49 10a125 125 0 0 1-144-84l-16-46h-106l-15 47a125 125 0 0 1-144 84l-49-10-54 92 33 37a125 125 0 0 1 0 167l-33 37 53 92 49-10a125 125 0 0 1 144 83l16 47h106l16-47a125 125 0 0 1 144-83l49 10 53-93-33-37a125 125 0 0 1 0-166z m-282 250a167 167 0 1 1 167-167 167 167 0 0 1-167 167z m0-250a83 83 0 1 0 83 83 83 83 0 0 0-83-83z" horiz-adv-x="1000" />

<glyph glyph-name="rocket" unicode="&#xec61;" d="M942 764a42 42 0 0 1-30 30 469 469 0 0 1-476-151l-46-55-109 26a116 116 0 0 1-141-57l-92-162a42 42 0 0 1 28-61l128-28a559 559 0 0 1-23-101 42 42 0 0 1 12-35l129-129a42 42 0 0 1 29-12c2 0 3 0 4 0a507 507 0 0 1 104 20l27-125a42 42 0 0 1 61-28l163 92a126 126 0 0 1 57 138l-28 115 52 47a467 467 0 0 1 151 476z m-793-361l65 115a34 34 0 0 0 44 16l72-17-27-33a546 546 0 0 1-67-100z m519-342l-113-64-18 83a472 472 0 0 1 101 68l31 28 17-69a43 43 0 0 0-18-46z m68 290l-154-141a407 407 0 0 0-215-96l-100 100a456 456 0 0 0 100 217l70 83a40 40 0 0 1 3 4l60 71a387 387 0 0 0 367 130 384 384 0 0 0-131-368z m-39 257a63 63 0 1 1 63-63 63 63 0 0 1-63 63z" horiz-adv-x="1000" />

<glyph glyph-name="share" unicode="&#xec62;" d="M904 379l-333 334a42 42 0 0 1-71-30v-147a459 459 0 0 1-417-457v-62a42 42 0 0 1 75-26 477 477 0 0 0 328 169c2 0 8 0 14 1v-144a42 42 0 0 1 71-30l333 334a42 42 0 0 1 0 58z m-321-262v87a42 42 0 0 1-41 42c-11 0-54-2-65-4a584 584 0 0 1-308-123 376 376 0 0 0 373 335 42 42 0 0 1 41 42v87l233-233z" horiz-adv-x="1000" />

<glyph glyph-name="x-add" unicode="&#xec63;" d="M613 546a42 42 0 0 1-59 0l-96-96-95 96a42 42 0 1 1-59-59l96-95-96-96a42 42 0 0 1 0-59 42 42 0 0 1 59 0l95 96 96-96a42 42 0 0 1 59 0 42 42 0 0 1 0 59l-96 96 96 95a42 42 0 0 1 0 59z m-321-446a125 125 0 0 0-125 125v333a125 125 0 0 0 125 125 42 42 0 0 1 0 84 208 208 0 0 1-209-209v-333a208 208 0 0 1 209-208 42 42 0 0 1 0 83z m458 458v-250a42 42 0 0 1 83 0v250a208 208 0 0 1-208 209 42 42 0 0 1 0-84 125 125 0 0 0 125-125z m125-458h-42v42a42 42 0 0 1-83 0v-42h-42a42 42 0 0 1 0-83h42v-42a42 42 0 0 1 83 0v42h42a42 42 0 0 1 0 83z" horiz-adv-x="1000" />

<glyph glyph-name="user-nurse" unicode="&#xec64;" d="M674 312c-1 0-2 1-2 1-6 2-12 5-18 7a250 250 0 1 1-308 0c-6-2-12-5-18-7l-2-1a414 414 0 0 1-240-333 42 42 0 1 1 83-9 331 331 0 0 0 166 253l135-136a42 42 0 0 1 59 0l136 136a331 331 0 0 0 166-253 42 42 0 0 1 41-37 44 44 0 0 1 5 1 42 42 0 0 1 37 45 414 414 0 0 1-240 333z m-339 222a166 166 0 0 0 330 0z m165-358l-81 81a326 326 0 0 0 162 0z m0 174a167 167 0 0 0-153 100h306a167 167 0 0 0-153-100z" horiz-adv-x="1000" />

<glyph glyph-name="microscope" unicode="&#xec65;" d="M833-25h-216a123 123 0 0 1 6 24 335 335 0 0 1 210 309 331 331 0 0 1-88 226l26 27a41 41 0 0 1 10 16l30 88a42 42 0 0 1-10 43l-89 88a42 42 0 0 1-42 10l-89-29a42 42 0 0 1-16-10l-265-265a42 42 0 0 1 0-59l-59-59a42 42 0 0 1 0-59l88-88a42 42 0 0 1 59 0l59 58 0 0a42 42 0 0 1 59 0l180 180a248 248 0 0 0 64-167 252 252 0 0 0-144-226 124 124 0 0 1-213-3 284 284 0 0 0-47 23 41 41 0 0 1 29 39 42 42 0 0 1-42 42h-166a42 42 0 0 1 0-83h55a367 367 0 0 1 155-103 123 123 0 0 1 6-22h-216a42 42 0 0 1 0-84h666a42 42 0 0 1 0 84z m-474 350l-30 29 30 30 29-30z m346 288l-228-229-89 88 229 229 55 18 52-52z m-205-638a42 42 0 1 0 42 41 42 42 0 0 0-42-41z" horiz-adv-x="1000" />

<glyph glyph-name="virus-slash" unicode="&#xec66;" d="M424 632a313 313 0 0 0 34 6v-52a42 42 0 1 1 84 0v53a289 289 0 0 0 164-83v0l0 0a291 291 0 0 0 82-164h-38a42 42 0 0 1 0-84h38a319 319 0 0 0-6-34 42 42 0 0 1 30-51 41 41 0 0 1 10-1 42 42 0 0 1 40 31 400 400 0 0 1 10 55h45a42 42 0 0 1 0 84h-44a372 372 0 0 1-80 192l31 31a42 42 0 0 1-59 59l-31-31a371 371 0 0 1-192 79v45a42 42 0 1 1-84 0v-45a395 395 0 0 1-55-10 42 42 0 0 1 21-80z m159-157a42 42 0 1 1 42 42 42 42 0 0 1-42-42z m183-332l-1 1 0 0-652 652a42 42 0 0 1-59-59l153-153a372 372 0 0 1-80-192h-44a42 42 0 0 1 0-84h45a373 373 0 0 1 79-192l-31-31a42 42 0 1 1 59-59l31 31a373 373 0 0 1 192-80v-44a42 42 0 0 1 84 0v44a373 373 0 0 1 192 80l153-153a42 42 0 0 1 59 59z m-224-81v80a42 42 0 0 1-84 0v-80a291 291 0 0 0-164 81l0 1-1 0a291 291 0 0 0-81 164h38a42 42 0 0 1 0 84h-38a289 289 0 0 0 55 132l77-77a63 63 0 0 1 87-87l243-243a290 290 0 0 0-132-55z m-167 205a42 42 0 1 1 42-42 42 42 0 0 1-42 42z" horiz-adv-x="1000" />

<glyph glyph-name="visual-studio" unicode="&#xec67;" d="M702 767l-323-324-204 161-90-46v-416l90-46 205 161 323-324 214 87v663z m-520-513v194l102-101z m514-54l-194 150 194 150z" horiz-adv-x="1000" />

<glyph glyph-name="head-side-mask" unicode="&#xec68;" d="M551 767a307 307 0 0 1-227-89 310 310 0 0 1-95-222l-77-125a41 41 0 0 1-6-22v-2a42 42 0 0 1 3-14l60-161c0-2 1-3 2-5a124 124 0 0 1 111-69h32v-83a42 42 0 0 1 83 0v83h84a42 42 0 0 1 13 3l154 52a42 42 0 0 1 1-5l42-145a42 42 0 0 1 40-30 42 42 0 0 1 11 2 42 42 0 0 1 29 52l-39 133 81 303a43 43 0 0 1 1 10v10a321 321 0 0 1-303 324z m-72-625h-157a41 41 0 0 0-36 21l-39 104h232z m230 66l-146-50v120l181 61z m59 225a41 41 0 0 1-10-2l-244-81h-252l45 73a42 42 0 0 1 6 23l0 8a227 227 0 0 0 69 165 230 230 0 0 0 167 64 237 237 0 0 0 222-240z" horiz-adv-x="1000" />

<glyph glyph-name="baseball-ball" unicode="&#xec69;" d="M580 582a42 42 0 0 1-71-44q11-18 24-35a42 42 0 0 1 67 49q-11 14-20 30z m-114-385a42 42 0 1 1-67-49c7-10 14-20 20-30a42 42 0 1 1 71 44c-7 12-15 24-24 35z m-154 143a42 42 0 0 1-44-71q15-9 30-20a42 42 0 1 1 49 68q-17 12-35 23z m419 91q-15 9-30 20a42 42 0 0 1-49-68q17-12 35-23a42 42 0 1 1 44 71z m60 211a413 413 0 1 1 0-584 413 413 0 0 1 0 584z m-53-531a335 335 0 0 0-188-94 40 40 0 0 1-73-3 336 336 0 0 0-314 313 41 41 0 0 1 3 73 335 335 0 0 0 283 283 42 42 0 0 1 36-21 43 43 0 0 1 9 1 41 41 0 0 1 28 23 336 336 0 0 0 314-314 41 41 0 0 1-3-72 335 335 0 0 0-95-189z" horiz-adv-x="1000" />

<glyph glyph-name="stethoscope-alt" unicode="&#xec6a;" d="M792 517a125 125 0 0 1-42-243v-70a188 188 0 0 0-375 0v43l130 104a207 207 0 0 1 78 162v212a42 42 0 0 1-41 42h-84a42 42 0 0 1 0-84h42v-170a124 124 0 0 0-47-97l-120-96-119 96a124 124 0 0 0-47 97v170h41a42 42 0 0 1 0 84h-83a42 42 0 0 1-42-42v-212a207 207 0 0 1 79-162l130-104v-43a271 271 0 0 1 541 0v70a125 125 0 0 1-41 243z m0-167a42 42 0 1 0 41 42 42 42 0 0 0-41-42z" horiz-adv-x="1000" />

<glyph glyph-name="hospital-symbol" unicode="&#xec6b;" d="M625 558a42 42 0 0 1-42-41v-125h-166v125a42 42 0 0 1-84 0v-334a42 42 0 0 1 84 0v125h166v-125a42 42 0 0 1 84 0v334a42 42 0 0 1-42 41z m-125 209a417 417 0 1 1 417-417 417 417 0 0 1-417 417z m0-750a333 333 0 1 0 333 333 334 334 0 0 0-333-333z" horiz-adv-x="1000" />

<glyph glyph-name="hospital-square-sign" unicode="&#xec6c;" d="M625 600a42 42 0 0 1-42-42v-166h-166v166a42 42 0 0 1-84 0v-416a42 42 0 0 1 84 0v166h166v-166a42 42 0 0 1 84 0v416a42 42 0 0 1-42 42z m167 167h-584a125 125 0 0 1-125-125v-584a125 125 0 0 1 125-125h584a125 125 0 0 1 125 125v584a125 125 0 0 1-125 125z m41-709a42 42 0 0 0-41-41h-584a42 42 0 0 0-41 41v584a42 42 0 0 0 41 41h584a42 42 0 0 0 41-41z" horiz-adv-x="1000" />

<glyph glyph-name="head-side" unicode="&#xec6d;" d="M551 767a307 307 0 0 1-227-89 310 310 0 0 1-95-224v-1l-79-169a42 42 0 0 1 38-59h41v-83a83 83 0 0 1 84-84h41v-83a42 42 0 0 1 84 0v83a42 42 0 0 1 0 84h-125v125a42 42 0 0 1-42 41h-18l56 119a41 41 0 0 1 4 19l0 8a227 227 0 0 0 69 165 230 230 0 0 0 167 64 237 237 0 0 0 222-240l-82-313a42 42 0 0 1 0-22l42-145a42 42 0 0 1 40-30 42 42 0 0 1 11 2 42 42 0 0 1 29 52l-39 133 81 303a43 43 0 0 1 1 10v10a321 321 0 0 1-303 324z" horiz-adv-x="1000" />

<glyph glyph-name="head-side-cough" unicode="&#xec6e;" d="M179 4a42 42 0 1 1 59 0 42 42 0 0 1-59 0z m-125 125a42 42 0 1 1 59 0 42 42 0 0 1-59 0z m167 42a42 42 0 1 1 58 0 42 42 0 0 1-58 0z m452 596a294 294 0 0 1-304-295v0l-73-157a42 42 0 0 1 37-59h36v-75a81 81 0 0 1 81-81h36v-75a42 42 0 0 1 83 0v76a41 41 0 0 1-2 82l-35 0a39 39 0 0 1-4 0 39 39 0 0 1-6-1l-69-1v116a42 42 0 0 1-42 42h-12l50 107a41 41 0 0 1 4 19l0 7a209 209 0 0 0 64 152 212 212 0 0 0 153 59 218 218 0 0 0 205-221l-76-292a42 42 0 0 1 0-22l39-135a42 42 0 0 1 40-30 42 42 0 0 1 11 2 42 42 0 0 1 29 52l-36 123 75 282a43 43 0 0 1 1 11v9a302 302 0 0 1-285 305z" horiz-adv-x="1000" />

<glyph glyph-name="clinic-medical" unicode="&#xec6f;" d="M458 350v-42h-41a42 42 0 0 1 0-83h41v-42a42 42 0 0 1 84 0v42h41a42 42 0 0 1 0 83h-41v42a42 42 0 0 1-84 0z m445 73l-375 333a42 42 0 0 1-56 0l-375-333a42 42 0 0 1 56-62l14 12v-398a42 42 0 0 1 41-42h584a42 42 0 0 1 41 42v398l14-12a42 42 0 0 1 56 62z m-153-406h-500v430l250 222 250-222z" horiz-adv-x="1000" />

<glyph glyph-name="wind-moon" unicode="&#xec70;" d="M500 58h-208a42 42 0 0 1 0-83h208a42 42 0 0 0 42-42 42 42 0 0 1 83 0 125 125 0 0 1-125 125z m83 417a42 42 0 1 1-41 42 42 42 0 0 1 41-42z m167 0h83a125 125 0 0 1 125 125 42 42 0 0 1-83 0 42 42 0 0 0-42-42h-83a42 42 0 0 1 0-83z m83-250h-90a335 335 0 0 1 48 123 42 42 0 0 1-54 46 249 249 0 0 0-80-13 253 253 0 0 0-253 252 298 298 0 0 0 4 44 42 42 0 0 1-54 46 335 335 0 0 1-176-498h-53a42 42 0 0 1 0-83h208a42 42 0 0 1 0 83h-48a251 251 0 0 0 36 390 336 336 0 0 1 336-317 328 328 0 0 1 33 2 251 251 0 0 0-53-75h-137a42 42 0 0 1 0-83h333a42 42 0 0 0 0-84 42 42 0 0 1 0-83 125 125 0 0 1 0 250z m-724-170a48 48 0 0 1-14-9 43 43 0 0 1-12-29 41 41 0 0 1 58-39 48 48 0 0 1 14 9 41 41 0 0 1 12 30 44 44 0 0 1-12 29 42 42 0 0 1-46 9z" horiz-adv-x="1000" />

<glyph glyph-name="hospital" unicode="&#xec71;" d="M521 163h-42a42 42 0 0 1 0-84h42a42 42 0 0 1 0 84z m0 166h-42a42 42 0 0 1 0-83h42a42 42 0 0 1 0 83z m-209-166h-41a42 42 0 0 1 0-84h41a42 42 0 0 1 0 84z m0 166h-41a42 42 0 0 1 0-83h41a42 42 0 0 1 0 83z m584 250h-125v167a42 42 0 0 1-42 42h-458a42 42 0 0 1-42-42v-167h-125a42 42 0 0 1-42-41v-584a42 42 0 0 1 42-41h792a42 42 0 0 1 41 41v584a42 42 0 0 1-41 41z m-42-583h-708v500h125a42 42 0 0 1 42 42v166h375v-166a42 42 0 0 1 41-42h125z m-166 333a42 42 0 0 1 0-83h41a42 42 0 0 1 0 83z m-125 229h-21v21a42 42 0 0 1-84 0v-21h-20a42 42 0 0 1 0-83h20v-21a42 42 0 0 1 84 0v21h21a42 42 0 0 1 0 83z m166-395h-41a42 42 0 0 1 0-84h41a42 42 0 0 1 0 84z" horiz-adv-x="1000" />

<glyph glyph-name="stethoscope" unicode="&#xec72;" d="M792 517a125 125 0 0 1-42-243v-70a188 188 0 0 0-375 0v25a250 250 0 0 1 208 246v250a42 42 0 0 1-41 42h-84a42 42 0 0 1 0-84h42v-208a167 167 0 0 0-333 0v208h41a42 42 0 0 1 0 84h-83a42 42 0 0 1-42-42v-250a250 250 0 0 1 209-246v-25a271 271 0 0 1 541 0v70a125 125 0 0 1-41 243z m0-167a42 42 0 1 0 41 42 42 42 0 0 0-41-42z" horiz-adv-x="1000" />

<glyph glyph-name="sanitizer" unicode="&#xec73;" d="M542 350a125 125 0 1 1 125-125 125 125 0 0 1-125 125z m0-167a42 42 0 1 0 41 42 42 42 0 0 0-41-42z m241 350l-116 88v104h41a42 42 0 0 1 0 83h-347a207 207 0 0 1-148-61l-34-34a42 42 0 1 1 59-59l34 34a126 126 0 0 0 89 37h56v-104l-117-88a126 126 0 0 1-50-100v-500a42 42 0 0 1 42-41h500a42 42 0 0 1 41 41v500a126 126 0 0 1-50 100z m-283 192h83v-83h-83z m250-750h-417v458a42 42 0 0 0 17 34l122 91h139l122-91a42 42 0 0 0 17-34z" horiz-adv-x="1000" />

<glyph glyph-name="toilet-paper" unicode="&#xec74;" d="M928 2a313 313 0 0 0-74 204v311c0 138-93 250-208 250h-375c-115 0-209-112-209-250s94-250 209-250h125v-61a397 397 0 0 1 93-258 42 42 0 0 1 32-15h375a42 42 0 0 1 31 69z m-657 348c-69 0-125 75-125 167s56 167 125 167 125-75 125-167-56-167-125-167z m270-334a316 316 0 0 0-62 190v292c0 1 0 2-1 3 1 5 1 11 1 16a278 278 0 0 1-53 167h220c69 0 125-75 125-167v-311a405 405 0 0 1 46-190z m-270 553a48 48 0 0 1-42-52 48 48 0 0 1 42-52 48 48 0 0 1 42 52 48 48 0 0 1-42 52z" horiz-adv-x="1000" />

<glyph glyph-name="coronavirus" unicode="&#xec75;" d="M396 475a63 63 0 1 1 62-62 63 63 0 0 1-62 62z m-21-208a42 42 0 1 1 42-42 42 42 0 0 1-42 42z m250 250a42 42 0 1 1 42-42 42 42 0 0 1-42 42z m-21-167a63 63 0 1 1 63-62 63 63 0 0 1-63 62z m313 42h-44a373 373 0 0 1-80 192l31 31a42 42 0 0 1-59 59l-31-31a373 373 0 0 1-192 80v44a42 42 0 0 1-84 0v-44a373 373 0 0 1-192-80l-31 31a42 42 0 0 1-59-59l31-31a373 373 0 0 1-80-192h-44a42 42 0 0 1 0-84h44a373 373 0 0 1 80-192l-31-31a42 42 0 1 1 59-59l31 31a373 373 0 0 1 192-80v-44a42 42 0 0 1 84 0v44a373 373 0 0 1 192 80l31-31a42 42 0 0 1 59 59l-31 31a373 373 0 0 1 80 192h44a42 42 0 0 1 0 84z m-167-84h38a292 292 0 0 0-246-246v80a42 42 0 0 1-84 0v-80a292 292 0 0 0-246 246h38a42 42 0 0 1 0 84h-38a292 292 0 0 0 246 246v-80a42 42 0 0 1 84 0v80a292 292 0 0 0 246-246h-38a42 42 0 0 1 0-84z" horiz-adv-x="1000" />

<glyph glyph-name="user-arrows" unicode="&#xec76;" d="M860 193a145 145 0 0 1 36 95 146 146 0 0 1-292 0 145 145 0 0 1 36-95 208 208 0 0 1-98-176 42 42 0 0 1 83 0 125 125 0 0 0 250 0 42 42 0 0 1 83 0 208 208 0 0 1-98 176z m-110 32a63 63 0 1 0 63 63 63 63 0 0 0-63-63z m-467 304l83-83a42 42 0 0 1 59 58l-12 13h174l-12-13a42 42 0 1 1 59-58l83 83a42 42 0 0 1 0 59l-83 83a42 42 0 0 1-59-59l12-12h-174l12 12a42 42 0 0 1-59 59l-83-83a42 42 0 0 1 0-59z m77-336a145 145 0 0 1 36 95 146 146 0 0 1-292 0 145 145 0 0 1 36-95 208 208 0 0 1-98-176 42 42 0 0 1 83 0 125 125 0 0 0 250 0 42 42 0 0 1 83 0 208 208 0 0 1-98 176z m-110 32a63 63 0 1 0 63 63 63 63 0 0 0-63-63z" horiz-adv-x="1000" />

<glyph glyph-name="house-user" unicode="&#xec77;" d="M903 423l-375 333a42 42 0 0 1-56 0l-375-333a42 42 0 0 1 56-62l14 12v-398a42 42 0 0 1 41-42h584a42 42 0 0 1 41 42v398l14-12a42 42 0 0 1 56 62z m-520-406a124 124 0 0 0 234 0z m54 229a63 63 0 1 0 63-63 63 63 0 0 0-62 63z m313-229h-46a208 208 0 0 1-94 134 145 145 0 0 1 36 95 146 146 0 0 1-292 0 145 145 0 0 1 36-95 208 208 0 0 1-94-134h-46v430l250 222 250-222z" horiz-adv-x="1000" />

<glyph glyph-name="social-distancing" unicode="&#xec78;" d="M354 142h-108l13 12a42 42 0 0 1-59 59l-84-84a42 42 0 0 1 0-58l84-84a42 42 0 0 1 59 59l-13 12h108a42 42 0 0 1 0 84z m530-13l-84 84a42 42 0 0 1-59-59l13-12h-108a42 42 0 0 1 0-84h108l-13-12a42 42 0 1 1 59-59l84 84a42 42 0 0 1 0 58z m-24 314a145 145 0 0 1 36 95 146 146 0 0 1-292 0 145 145 0 0 1 36-95 208 208 0 0 1-98-176 42 42 0 0 1 83 0 125 125 0 0 0 250 0 42 42 0 0 1 83 0 208 208 0 0 1-98 176z m-110 32a63 63 0 1 0 63 63 63 63 0 0 0-63-63z m-390-32a145 145 0 0 1 36 95 146 146 0 0 1-292 0 145 145 0 0 1 36-95 208 208 0 0 1-98-176 42 42 0 0 1 83 0 125 125 0 0 0 250 0 42 42 0 0 1 83 0 208 208 0 0 1-98 176z m-110 32a63 63 0 1 0 63 63 63 63 0 0 0-63-63z" horiz-adv-x="1000" />

<glyph glyph-name="credit-card-search" unicode="&#xec79;" d="M833 118a179 179 0 1 1-153-86 182 182 0 0 1 94 26l71-72a42 42 0 0 1 60 0 42 42 0 0 1 0 59z m-83 24a99 99 0 0 0-136 0 97 97 0 0 0 0 136 96 96 0 0 0 136 0 97 97 0 0 0 0-136z m42 583h-584a125 125 0 0 1-125-125v-375a125 125 0 0 1 125-125h167a42 42 0 0 1 0 83h-167a42 42 0 0 0-41 42v250h666v-42a42 42 0 0 1 84 0v167a125 125 0 0 1-125 125z m41-167h-666v42a42 42 0 0 0 41 42h584a42 42 0 0 0 41-42z m-416-166h-125a42 42 0 0 1 0-84h125a42 42 0 0 1 0 84z" horiz-adv-x="1000" />

<glyph glyph-name="android-alt" unicode="&#xec7a;" d="M125 475a42 42 0 0 1-42-42v-166a42 42 0 0 1 83 0v166a42 42 0 0 1-41 42z m750 0a42 42 0 0 1-42-42v-166a42 42 0 0 1 83 0v166a42 42 0 0 1-41 42z m-173 229a42 42 0 1 1-72 42l-25-44a247 247 0 0 1-210 0l-26 44a42 42 0 1 1-72-42l29-50a249 249 0 0 1-76-179v-333a42 42 0 0 1 41-42h84v-125a42 42 0 0 1 83 0v125h83v-125a42 42 0 0 1 84 0v125h83a42 42 0 0 1 42 42v333a249 249 0 0 1-76 179z m-36-521h-333v209h333z m-333 292a167 167 0 0 0 333 0z" horiz-adv-x="1000" />

<glyph glyph-name="shield-plus" unicode="&#xec7b;" d="M583 392h-41v41a42 42 0 0 1-84 0v-41h-41a42 42 0 0 1 0-84h41v-41a42 42 0 0 1 84 0v41h41a42 42 0 0 1 0 84z m235 306a42 42 0 0 1-35 8 333 333 0 0 0-259 53 42 42 0 0 1-48 0 332 332 0 0 0-259-53 42 42 0 0 1-50-40v-311a376 376 0 0 1 157-305l152-109a42 42 0 0 1 48 0l152 109a376 376 0 0 1 157 305v311a42 42 0 0 1-15 32z m-68-343a292 292 0 0 0-122-237l-128-92-128 92a292 292 0 0 0-122 237v262a415 415 0 0 1 250 58 415 415 0 0 1 250-58z" horiz-adv-x="1000" />

<glyph glyph-name="user-md" unicode="&#xec7c;" d="M662 299l0 0c-2 1-5 2-8 3a250 250 0 0 1 96 197 220 220 0 0 1-2 26 39 39 0 0 1 2 5l11 100a125 125 0 0 1-101 137l-33 6a705 705 0 0 1-254 0l-33-6a125 125 0 0 1-101-137l11-100a39 39 0 0 1 2-5 220 220 0 0 1-2-26 250 250 0 0 1 96-197c-3-1-6-2-8-3l0 0a415 415 0 0 1-252-338 42 42 0 0 1 83-9 331 331 0 0 0 176 258l126-126a42 42 0 0 1 58 0l126 126a331 331 0 0 0 176-258 42 42 0 0 1 41-37 44 44 0 0 1 5 0 42 42 0 0 1 37 46 415 415 0 0 1-252 338z m-341 341a42 42 0 0 0 34 45l33 6a622 622 0 0 0 224 0l33-6a42 42 0 0 0 34-45l-8-64h-342z m179-468l-69 69a327 327 0 0 0 138 0z m0 160a167 167 0 0 0-167 161h334a167 167 0 0 0-167-161z" horiz-adv-x="1000" />

<glyph glyph-name="transaction" unicode="&#xec7d;" d="M833 767h-416a125 125 0 0 1-125-125v-292a125 125 0 0 1 125-125h416a125 125 0 0 1 125 125v292a125 125 0 0 1-125 125z m42-417a42 42 0 0 0-42-42h-416a42 42 0 0 0-42 42v292a42 42 0 0 0 42 41h416a42 42 0 0 0 42-41z m-146 167a62 62 0 0 1-42-17 63 63 0 1 1 0-92 63 63 0 1 1 42 109z m-62-375a42 42 0 0 1-42-42v-42a42 42 0 0 0-42-41h-416a42 42 0 0 0-42 41v167h42a42 42 0 0 1 0 83h-42v42a42 42 0 0 0 42 42 42 42 0 0 1 0 83 125 125 0 0 1-125-125v-292a125 125 0 0 1 125-125h416a125 125 0 0 1 125 125v42a42 42 0 0 1-41 42z m-417-42h42a42 42 0 0 1 0 83h-42a42 42 0 0 1 0-83z" horiz-adv-x="1000" />

<glyph glyph-name="store-slash" unicode="&#xec7e;" d="M362 683h401l70-173a83 83 0 0 0-166 7 42 42 0 0 1-84 0 76 76 0 0 0-5-30 42 42 0 0 1 22-54 39 39 0 0 1 8-2 166 166 0 0 1 142-81v-54a42 42 0 0 1 83 0v77a166 166 0 0 1 84 142c0 0 0 1 0 1l0 1a40 40 0 0 1-2 7 40 40 0 0 1-1 8l-84 208a42 42 0 0 1-38 27h-430a42 42 0 1 1 0-84z m584-720l-122 122a39 39 0 0 1-6 6l-415 415a41 41 0 0 1-9 9l-178 178a40 40 0 0 1-5 5l-98 98a42 42 0 0 1-59-59l82-82-49-122-1-1a40 40 0 0 1-1-8 39 39 0 0 1-2-7l0-1 1-1a166 166 0 0 1 83-142v-398a42 42 0 0 1 41-42h584a41 41 0 0 1 38 28l57-57a42 42 0 0 1 59 59z m-779 547l33 81 120-119a82 82 0 0 0-70-39 83 83 0 0 0-83 77z m208-285v-208h-125v333a165 165 0 0 1 129 62l145-145h-107a42 42 0 0 1-42-42z m167-208h-84v166h84z m208 0h-125v149l125-125z" horiz-adv-x="1000" />

<glyph glyph-name="code-branch" unicode="&#xec7f;" d="M708 598a125 125 0 0 1-48-241 83 83 0 0 0-77-51h-166a163 163 0 0 1-84-23v239a125 125 0 1 1-83 0v-349a125 125 0 1 1 90-2 83 83 0 0 0 77 52h166a167 167 0 0 1 163 131 125 125 0 0 1-38 244z m-416 83a42 42 0 1 0-42-42 42 42 0 0 0 42 42z m0-667a42 42 0 1 0 41 42 42 42 0 0 0-41-42z m416 417a42 42 0 1 0 42 42 42 42 0 0 0-42-42z" horiz-adv-x="1000" />

<glyph glyph-name="google-drive-alt" unicode="&#xec80;" d="M917 248a26 26 0 0 1 0 6 25 25 0 0 0 0 5l-2 5h0l-250 429a42 42 0 0 1-40 20h-250a42 42 0 0 1-21-5l-4-4a30 30 0 0 1-4-3 24 24 0 0 1-4-5s0 0-3-3h0l-250-431a42 42 0 0 1 0-42l125-211h0a35 35 0 0 1 5-6l0-3a46 46 0 0 1 18-11h0a35 35 0 0 1 9 0h504a42 42 0 0 1 36 21l125 214h0l2 5a25 25 0 0 0 0 5 22 22 0 0 1 0 5 21 21 0 0 1 0 6 25 25 0 0 1 4 3z m-667-137l-75 129 200 349 36-63 42-69-161-270z m250 264l53-90h-106z m226-305h-405l77 131h405z m-77 215l-201 345h153l202-345z" horiz-adv-x="1000" />
</font>
</defs>
</svg>
